#TITLE:Palette Polis;
#SUBTITLE:Kirby Canvas Curse;
#ARTIST:Nintendo;
#TITLETRANSLIT:;
#SUBTITLETRANSLIT:;
#ARTISTTRANSLIT:;
#CREDIT:;
#BANNER:Palette Polis.jpg;
#BACKGROUND:Palette Polis-bg.jpg;
#LYRICSPATH:;
#CDTITLE:cdtitle.png;
#MUSIC:Palette Polis.mp3;
#OFFSET:-1.700;
#SAMPLESTART:41.750;
#SAMPLELENGTH:12.000;
#SELECTABLE:YES;
#BPMS:0.000=165.000;
#STOPS:;
#BGCHANGES:;
// cache tags:
#FIRSTBEAT:0.000;
#LASTBEAT:209.000;
#SONGFILENAME:Songs/Music V.I.P ^_^/Palette Polis (Patashu)/Palette Polis.sm;
#HASMUSIC:1;
#HASBANNER:1;
#MUSICLENGTH:105.665;
// end cache tags

//---------------dance-single - ----------------
#NOTES:
     dance-single:
     :
     Beginner:
     2:
     0.147,0.198,0.189,0.019,0.000,87.000,20.000,2.000,0.000,0.000:


1000
0000
0001
0000
,
1000
0000
0001
0000
,
0100
0000
0010
0000
,
0100
0000
0010
0000
,
1001
0000
0000
0000
,
1000
0000
0100
0000
,
0010
0000
0001
0000
,
1000
0000
0000
0000
,
1001
0000
0000
0000
,
0001
0000
0010
0000
,
0100
0000
1000
0000
,
0001
0000
0000
0000
,
1000
0000
0010
0000
,
0100
0000
0001
0000
,
1000
0000
0001
0000
,
0010
0000
0001
0000
,
1001
0000
0000
0000
,
0100
0000
0010
0000
,
0100
0000
0010
0000
,
1000
0000
0000
0000
,
1001
0000
0010
0000
,
0100
0000
0010
0000
,
1001
0000
0100
0000
,
0010
0000
0000
0000
,
0110
0000
1000
0000
,
0001
0000
1000
0000
,
0110
0000
0001
0000
,
1000
0000
0000
0000
,
1001
0000
0000
0000
,
0110
0000
0000
0000
,
1001
0000
0000
0000
,
0110
0000
0000
0000
,
1000
0000
0001
0000
,
0100
0000
0010
0000
,
0100
0000
0001
0000
,
1000
0000
0000
0000
,
1001
0000
0000
0000
,
0010
0000
1000
0000
,
0001
0000
0100
0000
,
0010
0000
0000
0000
,
1001
0000
0000
0000
,
0100
0000
0001
0000
,
1000
0000
0010
0000
,
0100
0000
0000
0000
,
0110
0000
1000
0000
,
0110
0000
0001
0000
,
1001
0000
0100
0000
,
1001
0000
0100
0000
,
1001
0000
0000
0000
,
1000
0000
0010
0000
,
0100
0000
0010
0000
,
0100
0000
1001
0000
,
2002
3003
0000
0000
;

//---------------dance-single - Copied from----------------
#NOTES:
     dance-single:
     Copied from:
     Easy:
     5:
     0.262,0.297,0.237,0.019,0.000,167.000,25.000,2.000,0.000,0.000:


1000
1000
0001
0001
,
1000
1000
0001
0001
,
0100
0100
0010
0010
,
0100
0100
0010
0010
,
1001
0000
0100
0000
,
1000
0100
0010
0001
,
1000
0001
0010
0100
,
1000
0000
0000
0000
,
1001
0000
0010
0000
,
0001
0010
0100
1000
,
0001
1000
0100
0010
,
0001
0000
1001
0000
,
1000
0000
0010
0100
,
0001
0010
0001
0100
,
1001
0000
0001
1000
,
0010
1000
0001
0000
,
1001
0000
0100
1000
,
0100
0010
0001
0010
,
0001
1000
0100
1000
,
0001
0000
1000
0000
,
1001
0000
0010
0000
,
1000
0010
1000
0100
,
1001
0000
0100
0000
,
0110
0000
0000
0000
,
0110
0000
1000
0000
,
0001
0100
0010
1000
,
0110
0000
0001
0000
,
1100
0000
0100
0000
,
1001
1000
1000
1000
,
0110
0100
0100
0100
,
1001
0001
0001
0001
,
0110
0010
0010
0010
,
1000
0010
1000
0100
,
0010
0001
0100
0010
,
0100
0001
1000
0001
,
1000
0000
1100
0000
,
0011
0000
0010
0000
,
0010
1000
0001
0100
,
0100
0001
1000
0010
,
0010
0000
0000
0000
,
1001
0000
0100
0000
,
0100
1000
0010
0100
,
0001
0010
0001
1000
,
0001
0000
0000
0000
,
0110
0100
0010
0100
,
0110
0010
0100
0010
,
1001
1000
0001
1000
,
1001
0001
1000
0001
,
1001
0000
1000
0001
,
1000
0100
0010
0100
,
1000
0001
0100
0010
,
0100
0010
1001
0000
,
2002
3003
0000
0000
;

//---------------dance-single - ----------------
#NOTES:
     dance-single:
     :
     Medium:
     7:
     0.422,0.445,0.227,0.019,0.137,286.000,24.000,2.000,0.000,0.000:


0010
0001
0010
0100
1000
0000
1001
0000
,
1000
0001
1000
0010
1000
0000
0110
0000
,
0100
0010
1000
0001
0100
0000
0011
0000
,
1000
0000
0100
0000
0010
0000
0100
0000
1000
0000
0000
1000
0000
0000
0000
0000
,
1000
0000
0000
0100
0000
0000
0010
0000
0000
0000
1000
0000
0010
0000
0100
0000
,
0001
0100
0001
1000
0000
0001
0010
0001
,
1000
0000
0000
0001
0000
0000
0100
0000
0000
0000
0010
0000
0100
0000
0001
0000
,
0000
1000
1000
1000
,
0010
0000
0000
1000
0000
0000
0100
0000
0000
0000
0001
0000
1000
0000
0010
0000
,
0100
0001
0010
0100
0000
1000
0010
1000
,
0100
0000
0000
0010
0000
0000
0100
0000
0000
0000
0001
0000
0010
0000
0100
0000
,
0000
0001
0001
0001
,
1000
0000
0010
1000
,
0001
1000
0010
0100
,
0010
0000
0000
0100
0001
0000
1000
0000
,
0001
0100
0010
0000
,
1001
0000
0000
0001
0010
0100
0000
1000
,
0100
0010
0000
0001
0100
0010
0000
1000
,
0010
0100
0000
0001
0100
0001
0000
1000
,
0010
0000
1001
0000
,
1000
0000
0000
0001
0000
0000
0010
0000
0000
0000
1000
0000
0010
0000
1000
0000
,
0100
0010
0001
1000
0000
0001
0100
0010
,
0100
0000
0000
1000
0000
0000
0001
0000
0000
0000
1000
0000
0100
0000
1000
0000
,
0000
0010
0010
0010
,
0100
0000
0000
0010
0000
0000
1000
0000
0000
0000
0001
0000
1000
0000
0010
0000
,
1000
0001
0100
0010
0000
1000
0100
0010
,
0001
0000
0000
1000
0000
0000
0100
0000
0000
0000
0001
0000
1000
0000
0010
0000
,
0000
0010
0010
0010
,
1001
0000
0000
0000
0100
0000
0100
0010
0000
0000
0100
0010
0000
0000
0010
0000
,
0110
0000
0000
0000
1000
0000
1000
0001
0000
0000
1000
0001
0000
0000
0001
0000
,
0011
0000
0000
0000
0100
0000
1000
0100
0000
0000
0100
1000
0000
0000
0010
0000
,
1010
0000
0000
0000
0100
0000
0010
0100
0000
0000
0100
1000
0000
0000
0100
0000
,
0101
0000
0000
0000
0010
0000
1000
0100
0000
0000
0010
0001
0000
0000
0100
0000
,
1100
0000
0000
0000
0100
0000
0010
0001
0000
0000
1000
0100
0000
0000
0010
0000
,
0110
0000
0000
0000
1000
0000
0001
1000
0000
0000
1000
0000
0010
0000
0100
0000
,
0010
0000
0000
1000
0000
0000
0100
0000
0000
0000
0000
0000
0000
0000
0000
0000
,
0001
0000
0000
0100
0000
0000
0001
0000
0000
0000
0001
0000
1000
0000
0010
0000
,
1000
0001
0100
0001
0000
1000
0010
0100
,
0010
0000
0000
1000
0000
0000
0001
0000
0000
0000
1000
0000
0100
0000
1000
0000
,
0000
0010
0010
0010
,
1000
0000
0000
0010
0000
0000
1000
0000
0000
0000
0100
0000
1000
0000
0001
0000
,
0010
0001
1000
0100
0000
0100
0010
0001
,
0010
0000
0000
0001
0000
0000
1000
0000
0000
0000
0010
0000
0100
0000
0010
0000
,
0000
0100
0100
0100
,
1001
0000
0000
0100
0010
0000
1100
0000
,
0110
0011
1001
1010
,
0101
0000
0000
0100
1000
0000
1001
0000
,
0110
0000
1001
0000
0110
0000
0000
1000
,
0100
0000
0000
0010
0001
0010
0001
1000
,
0100
1000
0100
0010
0100
1000
0100
0010
,
0001
1000
0100
0010
0001
1000
0001
0010
,
0100
0000
0000
0100
0000
0000
0100
0000
0100
0000
0010
0100
0000
0000
0000
0000
,
2002
3003
0000
0000
;

//---------------dance-single - ----------------
#NOTES:
     dance-single:
     :
     Hard:
     11:
     0.900,0.865,1.000,0.293,0.823,470.000,165.000,31.000,0.000,0.000:

1000
0010
0100
0001
1000
0010
0100
0001
1000
0010
0100
0001
0100
0010
0101
1000
,
0010
1000
0010
0100
0001
0100
0001
1000
0010
1000
0010
0100
0001
0100
0011
0100
,
1000
0001
1000
0100
0010
0001
0100
0010
1000
0010
0100
0001
1000
0001
1010
0001
,
1000
0100
1000
0010
1000
0100
1000
0110
0000
0000
1100
0000
0110
0110
0000
0000
,
1000
1000
0000
0011
0000
0000
1100
0000
0000
0000
1100
0000
0110
0000
0011
0000
,
1001
1010
1100
1010
0000
0101
0110
1010
,
0001
0001
0000
1010
0000
0000
1100
0000
0000
0000
1100
0000
0011
0000
0110
0000
,
0100
0010
0100
1000
0001
0010
0100
0010
0001
1000
0001
0100
0010
1000
0010
0100
,
0001
0001
0000
1100
0000
0000
1010
0000
0000
0000
1100
0000
0101
0000
0110
0000
,
0101
1010
1100
0110
0000
0110
1001
0110
,
1000
1000
0000
1100
0000
0000
1001
0000
0000
0000
1010
0000
0110
0000
0202
0000
,
0303
0000
0000
0000
1000
0100
1000
0100
1000
0010
1000
0010
1000
0001
1000
0001
,
1100
0000
0000
0000
0000
0000
1010
0100
1010
0000
0000
0000
0101
0000
0000
0000
,
1001
0000
0000
0000
0110
0000
0000
0000
0011
0000
0000
0000
2200
0000
0000
3300
,
0011
0000
0000
0000
0000
0000
0101
0010
0101
0000
0000
0000
1010
0000
0000
0000
,
0110
0000
0000
0000
1001
0000
0000
0000
0220
0000
0000
0000
0000
0330
0011
0100
,
0022
0000
0000
0000
0033
0000
1000
0001
0100
0010
1000
0001
0100
0001
0010
0001
,
1000
0010
1000
0100
0010
0001
0100
0010
1000
0100
1000
0001
1000
0001
1000
0010
,
1000
0100
1000
0001
0010
0100
0010
0001
1000
0001
0010
0100
1000
0010
0100
1001
,
0000
0000
0000
0110
0000
0000
1010
0000
0101
0000
1000
1000
0000
0000
0110
0000
,
0001
0001
0000
1100
0000
0000
0011
0000
0000
0000
1100
0000
1010
0000
1001
0000
,
0101
0110
1100
0101
0000
1010
0110
1001
,
1000
1000
0000
0110
0000
0000
1100
0000
0000
0000
0011
0000
1010
0000
0101
0000
,
0000
0000
0000
0000
1000
0010
0100
0010
1000
0001
0100
0010
0100
0001
1000
0001
,
1000
1000
0000
0011
0000
0000
0110
0000
0000
0000
1010
0000
0101
0000
1001
0000
,
1100
0110
0101
0011
0000
1100
0110
1100
,
0001
0001
0000
0110
0000
0000
1001
0000
0000
0000
1010
0000
1100
0000
0011
0000
,
0000
0000
0000
0000
1000
0001
0010
0100
0000
0000
1000
0100
0010
0001
0000
0000
,
2002
0000
3003
0000
0010
1000
0001
1000
0000
0000
0001
1000
0000
1000
0001
0000
,
0220
0000
0330
0000
0100
0001
1000
0010
0000
0000
1000
0010
0000
0010
1000
0000
,
0202
0000
0303
0000
1000
0001
0100
0010
0000
0000
0100
0010
0000
0010
0100
0000
,
2020
0000
3030
0000
0001
0100
0001
0010
0000
0000
0001
0010
0000
0010
0001
0000
,
2200
0000
3300
0000
0001
0010
0100
0010
0000
0000
0100
0010
0000
0010
0100
0000
,
0022
0000
0033
0000
1000
0100
1000
0001
0000
0000
1000
0001
0000
0001
1000
0000
,
2002
0000
3003
0000
0100
0010
1000
0010
0000
0000
0110
0000
0110
0000
0110
0000
,
0010
0010
0000
1000
0000
0100
0010
0010
0020
0000
0030
0000
1000
0001
1000
0000
,
0001
0001
0000
0110
0000
0000
1001
0000
0000
0000
0110
0000
1100
0000
0011
0000
,
1010
0101
1001
0110
0000
0011
0110
1010
,
1000
1000
0000
1010
0000
0000
0110
0000
0000
0000
1001
0000
0011
0000
1100
0000
,
0010
0100
0001
0010
0100
1000
0100
1000
0001
1000
0010
1000
0001
0010
0100
1000
,
0001
0001
0000
1010
0000
0000
0110
0000
0000
0000
1001
0000
1100
0000
0011
0000
,
1001
1010
0101
0110
0000
0110
1100
0110
,
0001
0001
0000
1010
0000
0000
0110
0000
0000
0000
1100
0000
0011
0000
1100
0000
,
0000
0000
0000
0000
0010
1000
0001
1000
0001
0100
0010
1000
0001
1000
0010
1000
,
0110
0000
0000
0000
0000
0000
1100
0010
1100
0000
0000
0000
0011
0000
0000
0000
,
1010
0000
0000
0000
0101
0000
0000
0000
1001
0000
0000
0000
0220
0000
0000
0330
,
1001
0000
0000
0000
0000
0000
0011
0100
0011
0000
0000
0000
1100
0000
0000
0000
,
0101
0000
0000
0000
1010
0000
0000
0000
0022
0000
0000
0033
0000
0000
1001
0100
,
2002
0000
0000
0000
3003
0000
0100
1000
0100
0010
0001
0010
0001
0100
0001
1000
,
0010
1000
0100
0010
0100
1000
0001
1000
0010
0100
0010
1000
0001
0010
0100
1000
,
0010
0100
0001
0100
0010
1000
0010
0100
0001
1000
0001
0010
0001
1000
0001
0100
,
1001
0000
0000
0110
0000
0000
1001
0000
1100
0000
0011
0011
0000
0000
0000
0000
,
2002
3003
0000
0000
;

//---------------dance-single - Copied from----------------
#NOTES:
     dance-single:
     Copied from:
     Challenge:
     12:
     0.936,0.940,1.000,0.293,0.823,470.000,191.000,31.000,0.000,0.000:


1000
0010
0100
0001
1000
0010
0100
0001
1000
0010
0100
0001
0100
0010
0101
1000
,
0010
1000
0010
0100
0001
0100
0001
1000
0010
1000
0010
0100
0001
0100
0011
0100
,
1000
0001
1000
0100
0010
0001
0100
0010
1000
0010
0100
0001
1000
0001
1010
0001
,
1000
0100
1000
0010
1000
0100
1000
0110
0000
0000
1100
0000
0110
0110
0000
0000
,
1000
1000
0000
0011
0000
0000
1100
0000
0000
0000
1100
0000
0110
0000
0011
0000
,
1001
1010
1100
1010
0000
0101
0110
1010
,
0001
0001
0000
1010
0000
0000
1100
0000
0000
0000
1100
0000
0011
0000
0110
0000
,
0100
0010
0100
1000
0001
0010
0100
0010
0001
1000
0001
0100
0010
1000
0010
0100
,
0001
0001
0000
1100
0000
0000
1010
0000
0000
0000
1100
0000
0101
0000
0110
0000
,
0101
1010
1100
0110
0000
0110
1001
0110
,
1000
1000
0000
1100
0000
0000
1001
0000
0000
0000
1010
0000
0110
0000
0202
0000
,
0303
0000
0000
0000
1000
0100
1000
0100
1000
0010
1000
0010
1000
0001
1000
0001
,
1100
0000
0000
0000
0000
0000
1010
0100
1010
0000
0000
0000
0101
0000
0000
0000
,
1001
0000
0000
0000
0110
0000
0000
0000
0011
0000
0000
0000
2200
0000
0000
3300
,
0011
0000
0000
0000
0000
0000
0101
0010
0101
0000
0000
0000
1010
0000
0000
0000
,
0110
0000
0000
0000
1001
0000
0000
0000
0220
0000
0000
0000
0000
0330
0011
0100
,
0022
0000
0000
0000
0033
0000
1000
0001
1100
0010
1000
0001
1010
0001
0010
0001
,
1100
0010
1000
0100
1010
0001
0100
0010
1001
0100
1000
0001
1010
0001
1000
0010
,
1001
0100
1000
0001
1010
0100
0010
0001
1100
0001
0010
0100
1001
0010
0100
1001
,
0000
0000
0000
0110
0000
0000
1010
0000
0101
0000
1000
1000
0000
0000
0110
0000
,
0001
0001
0000
1100
0000
0000
0011
0000
0000
0000
1100
0000
1010
0000
1001
0000
,
0101
0110
1100
0101
0000
1010
0110
1001
,
1000
1000
0000
0110
0000
0000
1100
0000
0000
0000
0011
0000
1010
0000
0101
0000
,
0000
0000
0000
0000
1001
0010
0100
0010
1100
0001
0100
0010
1100
0001
1000
0001
,
1000
1000
0000
0011
0000
0000
0110
0000
0000
0000
1010
0000
0101
0000
1001
0000
,
1100
0110
0101
0011
0000
1100
0110
1100
,
0001
0001
0000
0110
0000
0000
1001
0000
0000
0000
1010
0000
1100
0000
0011
0000
,
0000
0000
0000
0000
1000
0001
0010
0100
0000
0000
1000
0100
0010
0001
0000
0000
,
2002
0000
3003
0000
0010
1000
0001
1000
0000
0000
0001
1000
0000
1000
0001
0000
,
0220
0000
0330
0000
0100
0001
1000
0010
0000
0000
1000
0010
0000
0010
1000
0000
,
0202
0000
0303
0000
1000
0001
0100
0010
0000
0000
0100
0010
0000
0010
0100
0000
,
2020
0000
3030
0000
0001
0100
0001
0010
0000
0000
0001
0010
0000
0010
0001
0000
,
2200
0000
3300
0000
0001
0010
0100
0010
0000
0000
0100
0010
0000
0010
0100
0000
,
0022
0000
0033
0000
1000
0100
1000
0001
0000
0000
1000
0001
0000
0001
1000
0000
,
2002
0000
3003
0000
0100
0010
1000
0010
0000
0000
0110
0000
0110
0000
0110
0000
,
0010
0010
0000
1000
0000
0100
0010
0010
0020
0000
0030
0000
1000
0001
1000
0000
,
0001
0001
0000
0110
0000
0000
1001
0000
0000
0000
0110
0000
1100
0000
0011
0000
,
1010
0101
1001
0110
0000
0011
0110
1010
,
1000
1000
0000
1010
0000
0000
0110
0000
0000
0000
1001
0000
0011
0000
1100
0000
,
0010
0100
0001
0010
0100
1000
0100
1000
0001
1000
0010
1000
0001
0010
0100
1000
,
0001
0001
0000
1010
0000
0000
0110
0000
0000
0000
1001
0000
1100
0000
0011
0000
,
1001
1010
0101
0110
0000
0110
1100
0110
,
0001
0001
0000
1010
0000
0000
0110
0000
0000
0000
1100
0000
0011
0000
1100
0000
,
0000
0000
0000
0000
0110
1000
0001
1000
0011
0100
0010
1000
0101
1000
0010
1000
,
0110
0000
0000
0000
0000
0000
1100
0010
1100
0000
0000
0000
0011
0000
0000
0000
,
1010
0000
0000
0000
0101
0000
0000
0000
1001
0000
0000
0000
0220
0000
0000
0330
,
1001
0000
0000
0000
0000
0000
0011
0100
0011
0000
0000
0000
1100
0000
0000
0000
,
0101
0000
0000
0000
1010
0000
0000
0000
0022
0000
0000
0033
0000
0000
1001
0100
,
2002
0000
0000
0000
3003
0000
0100
1000
0101
0010
0001
0010
1001
0100
0001
1000
,
0110
1000
0100
0010
0101
1000
0001
1000
0011
0100
0010
1000
0101
0010
0100
1000
,
0011
0100
0001
0100
0011
1000
0010
0100
0011
1000
0001
0010
0101
1000
0001
0100
,
1001
0000
0000
0110
0000
0000
1001
0000
1100
0000
0011
0011
0000
0000
0000
0000
,
2002
3003
0000
0000
;
